<?xml version="1.0" standalone="no"?>
<!DOCTYPE svg PUBLIC "-//W3C//DTD SVG 1.1//EN" "http://www.w3.org/Graphics/SVG/1.1/DTD/svg11.dtd">
<svg xmlns="http://www.w3.org/2000/svg">
<metadata>Copyright (C) 2018 by original authors @ fontello.com</metadata>
<defs>
<font id="fontello" horiz-adv-x="1000" >
<font-face font-family="fontello" font-weight="400" font-stretch="normal" units-per-em="1000" ascent="850" descent="-150" />
<missing-glyph horiz-adv-x="1000" />
<glyph glyph-name="dc_phone_icon_home_page" unicode="&#xe800;" d="M800 0l-200-150v474c0 28 22 50 50 50h300c28 0 50-22 50-50v-474l-200 150z m40 228l-40 72-40-72-84-14 60-58-12-80 76 34 78-36-12 80 60 58-86 16z m-314 122v-450h-450c-42 0-76 34-76 76v800c0 40 34 74 76 74h650c40 0 74-34 74-76v-324h-176c-54 0-98-44-98-100z m-200 400h-200c-14 0-26-12-26-26s12-26 26-26h200c14 0 26 12 26 26s-14 26-26 26z m100-150h-300c-14 0-26-12-26-26s12-24 26-24h300c14 0 26 12 26 26s-14 24-26 24z" horiz-adv-x="1000" />

<glyph glyph-name="dc_phone_icon_inbox" unicode="&#xe801;" d="M388 72h222m28 0c16 0 28 12 28 28l56 138h250c14 0 24 10 26 22l2-4-56-312c0-52-42-94-94-94h-700c-52 0-94 42-94 94l-56 312 2 4c2-12 14-22 26-22h250l56-138c0-16 12-28 28-28m332 222c-16 0-28-12-28-28l-56-138h-222l-56 138c0 16-12 28-28 28h-276c-8 0-16-4-22-10l120 504c4 22 26 62 62 62h594c34 0 58-38 62-62l148-500c-4 4-12 8-18 8h-280z m-46 368h-328c-22 0-38-14-38-32 0-18 18-32 38-32h328c22 0 38 14 38 32 2 18-16 32-38 32z m94-156h-516c-22 0-40-14-40-32 0-18 18-32 40-32h516c22 0 40 14 40 32 0 18-18 32-40 32z" horiz-adv-x="1000" />

<glyph glyph-name="dc_phone_icon_investor" unicode="&#xe802;" d="M875 850h-800c-41 0-75-34-75-75v-850c0-41 34-75 75-75h800c41 0 75 34 75 75v850c0 41-34 75-75 75z m-450-250h150c14 0 25-11 25-25s-11-25-25-25h-150c-14 0-25 11-25 25s11 25 25 25z m-175-500h-50v50h50v-50z m0 225h-50v50h50v-50z m0 225h-50v50h50v-50z m450-450h-275c-14 0-25 11-25 25s11 25 25 25h275c14 0 25-11 25-25s-11-25-25-25z m75 225h-350c-14 0-25 11-25 25s11 25 25 25h350c14 0 25-11 25-25s-11-25-25-25z" horiz-adv-x="950" />

<glyph glyph-name="dc_phone_icon_music" unicode="&#xe803;" d="M820 188v551c0 3-2 7-5 9-2 2-6 3-9 2l-457-128c-5-1-9-6-9-11v-455c-17 8-29 12-47 12-62 0-113-49-113-109 0-60 51-109 113-109 58 0 119 44 126 99 1 2 1 3 1 5v5c0 0 0 0 0 0s0 1 0 1v445l319 96v-310c-10 3-12 6-24 6-62 0-112-49-112-110 0-60 50-109 112-109 59 0 100 44 104 100 1 1 1 3 1 4v5c0 0 0 0 0 0 0 1 0 1 0 1z" horiz-adv-x="1000" />

<glyph glyph-name="dc_phone_icon_pic" unicode="&#xe804;" d="M820 750h-640c-44 0-80-36-80-80v-640c0-44 36-80 80-80h640c44 0 80 36 80 80v640c0 44-36 80-80 80z m-450-200c39 0 70-31 70-70s-31-70-70-70-70 31-70 70 31 70 70 70z m430-451c0-29-48-49-48-49-142 0-552 0-552 0l288 243 144-49 168 146c0 0 0-196 0-291z" horiz-adv-x="1000" />

<glyph glyph-name="dc_phone_icon_recycle_bin" unicode="&#xe805;" d="M792 714h-58v22c0 58-48 114-106 114h-256c-58 0-106-58-106-114v-22h-58c-68 0-124-44-124-110v-30h834v30c-2 66-58 110-126 110z m-170 0h-248v0c0 24 20 46 46 46h156c26 0 46-22 46-46l0 0z m-482-802c0-34 30-62 66-62h588c36 0 66 28 66 62v606h-720v-606z m388 268c-2 0-4 2-6 4-2 2-2 4 0 8l94 142c2 2 4 4 6 4s4-2 6-4l94-142c2-2 2-4 0-8s-4-4-6-4h-50c-4-30-28-164-138-164-4 0-6 2-6 6 0 0 0 0 0 2 0 2 2 6 4 6 2 0 46 20 54 94 2 16 2 34 2 56 0 0-54 0-54 0z m-250 2c2 2 4 4 6 4h50c4 30 28 164 138 164 4 0 6-2 6-6 0 0 0 0 0-2 0-2-2-6-4-6-2 0-46-20-54-94-2-16-2-34-2-56h54c2 0 4-2 6-4 2-2 0-6 0-8l-94-142c-2 0-4-2-6-2-2 0-4 2-6 4l-94 142c0 2-2 4 0 6z" horiz-adv-x="1000" />

<glyph glyph-name="dc_phone_icon_sidebar_normal" unicode="&#xe806;" d="M50 700h900c28 0 50-22 50-50s-22-50-50-50h-900c-28 0-50 22-50 50s22 50 50 50z m0-300h500c28 0 50-22 50-50 0-28-22-50-50-50h-500c-28 0-50 22-50 50 0 28 22 50 50 50z m0-300h700c28 0 50-22 50-50s-22-50-50-50h-700c-28 0-50 22-50 50 0 28 22 50 50 50z" horiz-adv-x="1000" />

<glyph glyph-name="dc_phone_icon_sidebar_open" unicode="&#xe807;" d="M50 700h900c28 0 50-22 50-50s-22-50-50-50h-900c-28 0-50 22-50 50s22 50 50 50z m0-300h650c28 0 50-22 50-50 0-28-22-50-50-50h-650c-28 0-50 22-50 50 0 28 22 50 50 50z m0-300h400c28 0 50-22 50-50s-22-50-50-50h-400c-28 0-50 22-50 50 0 28 22 50 50 50z" horiz-adv-x="1000" />

<glyph glyph-name="dc_phone_icon_video" unicode="&#xe808;" d="M600 590h-440c-33 0-60-27-60-60v-360c0-33 27-60 60-60h440c33 0 60 27 60 60v360c0 33-27 60-60 60z m276 0l-92-73c-14 0-24-10-24-24v-286c0-13 10-24 24-24l92-73c13 0 24 15 24 34v412c0 19-11 34-24 34z" horiz-adv-x="1000" />

<glyph glyph-name="pr_icon_edit_case_add" unicode="&#xe809;" d="M916 266h-332v-334c0-46-38-84-84-84s-84 38-84 84v334h-332c-46 0-84 38-84 84s38 84 84 84h334v332c-2 46 36 84 82 84s84-38 84-84v-334h334c46 0 84-38 84-84s-40-82-86-82z" horiz-adv-x="1000" />

<glyph glyph-name="pr_phone_arrow_answer_open" unicode="&#xe80a;" d="M986 590c-18 14-46 14-64 0l-422-400-422 400c-18 14-46 14-64 0s-18-36 0-50l452-430c10-8 22-10 34-10 12 0 24 4 34 10l454 430c16 14 16 36-2 50z" horiz-adv-x="1000" />

<glyph glyph-name="pr_phone_arrow_edit_open" unicode="&#xe80b;" d="M982 528l-438-444c0 0 0-2 0-2-12-12-28-18-44-18-16 0-32 6-44 18 0 0 0 2-2 2l-436 444c-24 24-24 64 0 88s64 24 88 0l394-400 394 400c24 24 64 24 88 0s24-64 0-88z" horiz-adv-x="1000" />

<glyph glyph-name="pr_phone_icon_answer_small" unicode="&#xe80c;" d="M726 16h-392c-62 0-112 50-112 112h556c62 0 112 50 112 112v388c62 0 112-50 112-112v-666l-276 166z m-4 190h-448l-274-168v700c0 62 50 112 112 112h612c62 0 112-50 112-112v-422c-2-60-52-110-114-110z m-344 156c10-8 20-12 34-12 14 0 24 4 34 12 10 8 14 18 14 30 0 12-4 22-14 28-8 8-20 12-34 12-12 0-24-4-34-12-8-8-14-18-14-28 2-14 6-22 14-30z m142 348c-24 18-56 28-96 28-44 0-80-12-106-34-26-22-40-54-40-92h70c0 22 6 40 16 52 12 14 30 22 58 22 22 0 38-6 48-14 12-10 18-24 18-42 0-14-6-26-16-38l-8-8c-40-32-64-54-72-68-8-14-12-32-12-52v-8h70v8c0 12 4 24 10 34 6 10 14 20 24 26 28 22 46 36 52 42 16 18 22 40 22 66-2 34-14 60-38 78z" horiz-adv-x="1000" />

<glyph glyph-name="pr_phone_icon_case_small" unicode="&#xe80d;" d="M306 294v1c15 0 27-13 27-28l56-139h222l56 139c0 15 12 28 27 28h278c8 0 14-3 19-8l-147 501c-5 23-28 62-63 62h-593c-35 0-57-40-63-62l-118-504c5 6 12 10 21 10h278z m4 389h381c17 0 31-12 31-27 0-16-14-28-31-28h-381c-18 0-32 12-32 28 0 15 14 27 32 27z m-53-111h486c19 0 35-12 35-28 0-15-16-27-35-27h-486c-19 0-35 12-35 27 0 16 16 28 35 28z m-53-111h592c21 0 37-12 37-28 0-15-16-27-37-27h-592c-21 0-37 12-37 27 0 16 16 28 37 28z m795-201c-3-12-14-21-27-21h-250l-55-139c0-15-13-28-28-28-15 0-28 0-28 0h-222c0 0-12 0-28 0-15 0-28 13-28 28l-55 139h-250c-13 0-24 9-27 22l-1-5 56-312c0-52 42-94 93-94h702c52 0 94 42 94 94l55 312-1 4z" horiz-adv-x="1000" />

<glyph glyph-name="pr_phone_icon_position" unicode="&#xe80e;" d="M500 850c-234 0-426-168-426-376 0-240 240-554 426-626 186 70 426 384 426 626 0 208-192 376-426 376z m0-562c-100 0-182 84-182 188s82 186 182 186 182-84 182-188-82-186-182-186z" horiz-adv-x="1000" />

<glyph glyph-name="pr_phone_icon_preference_delete" unicode="&#xe80f;" d="M500 850c-276 0-500-224-500-500s224-500 500-500 500 224 500 500-224 500-500 500z m230-538h-460c-22 0-38 18-38 38s18 38 38 38h462c22 0 38-18 38-38s-18-38-40-38z" horiz-adv-x="1000" />

<glyph glyph-name="pr_phone_icon_preference_small" unicode="&#xe810;" d="M518 284v-63c15 4 27 13 27 30 0 15-11 25-27 33z m-55 173c0-14 12-22 29-30v56c-20-4-29-15-29-26z m37 393c-276 0-500-224-500-500s224-500 500-500 500 224 500 500-224 500-500 500z m0-890c-215 0-390 175-390 390s175 390 390 390 390-175 390-390-175-390-390-390z m0 723c-184 0-333-149-333-333s149-333 333-333 333 149 333 333-149 333-333 333z m22-528v-14c0-6-8-12-17-12-10 0-17 6-17 12v12c-55 2-99 31-99 62 0 16 14 39 31 39 19 0 34-28 68-34v77c-31 34-91 92-91 153 0 60 43 89 91 96v13c0 7 7 13 17 13 9 0 17-6 17-13v-12c28-1 88 0 88-32 0-13-15-48-35-48-15 0-23 15-53 18l-3-85c25-16 92-78 92-142 0-58-36-94-89-103z" horiz-adv-x="1000" />

<glyph glyph-name="pr_phone_icon_profiles_small" unicode="&#xe811;" d="M818 850h-636c-100 0-182-82-182-182v-636c0-100 82-182 182-182h636c100 0 182 82 182 182v636c0 100-82 182-182 182z m-590-772l0 46c28 26 72 42 126 56 22 8 32 14 40 20 8 8 12 16 14 24 2 6 0 22 0 48-16 16-28 40-40 74-12 6-24 22-28 38-4 18-2 34 6 42-16 88-6 154 30 194 28 32 72 48 130 48l6 0c48 0 58-10 68-22 2-2 4-4 6-6 26 0 48-10 64-28 28-36 32-104 10-184 8-10 10-26 6-46-4-18-18-34-32-40-10-32-20-56-36-74v-44c2-12 6-18 16-26l6-6c6-4 10-6 34-16 50-14 94-28 122-54l0-46h-548z" horiz-adv-x="1000" />

<glyph glyph-name="pr_phone_icon_setting_small" unicode="&#xe812;" d="M956 446c-18 2-38 6-58 8-2 0-4 2-4 4-8 32-22 64-38 92-2 2 0 4 0 6 12 16 24 30 34 46 16 20 14 50-6 68l-64 64c-18 18-48 20-68 6-16-12-30-24-46-34-2-2-4-2-6 0-30 16-60 30-92 38-2 0-4 2-4 4-2 20-6 38-8 58-4 24-26 44-52 44h-90c-26 0-48-20-52-44-2-18-6-38-8-58 0-2-2-4-4-4-32-8-64-22-92-38-2-2-4 0-6 0-16 12-32 24-46 34-20 16-50 14-68-6l-64-62c-18-18-20-48-6-68 12-16 24-30 34-46 2-2 2-4 0-6-16-30-30-60-38-92 0-2-2-4-4-4-20-2-38-6-58-8-22-6-42-28-42-54v-90c0-26 20-48 44-52 18-2 38-6 58-8 2 0 4-2 4-4 8-32 22-64 38-92 2-2 0-4 0-6-12-16-24-30-34-46-16-20-14-50 6-68l64-64c18-18 48-20 68-6 16 12 30 24 46 34 2 2 4 2 6 0 30-16 60-30 92-38 2 0 4-2 4-4 2-20 6-38 8-58 4-26 26-44 52-44h90c26 0 48 20 52 44 2 18 6 38 8 58 0 2 2 4 4 4 32 8 64 22 92 38 2 2 4 0 6 0 16-12 30-24 46-34 20-16 50-14 68 6l64 64c18 18 20 48 6 68-12 16-24 30-34 46-2 2-2 4 0 6 16 30 30 60 38 92 0 2 2 4 4 4 20 2 38 6 58 8 26 4 44 26 44 52v90c-2 26-22 48-46 52z m-456-266c-94 0-170 76-170 170s76 170 170 170 170-76 170-170-76-170-170-170z" horiz-adv-x="1000" />

<glyph glyph-name="pr_phone_icon_sign_accounts" unicode="&#xe813;" d="M846-150h-692c-70 0-126 58-126 130 0 268 212 292 472 292s472-22 472-292c0-72-56-130-126-130z m-346 474c-144 0-262 118-262 262 0 146 118 264 262 264s262-118 262-262c0-146-118-264-262-264z" horiz-adv-x="1000" />

<glyph glyph-name="pr_phone_icon_sign_password" unicode="&#xe814;" d="M832 516l0 0c2 168-148 334-332 334s-334-166-334-334l2 0c-78-8-140-74-140-152v-358c0-84 70-154 158-154h630c86 0 158 68 158 154v356c-2 80-64 146-142 154z m-282-346c2-4 2-8 2-12v-102c0-28-24-52-52-52s-52 22-52 52v102c0 4 2 8 2 12-32 18-56 50-56 90 0 56 46 102 104 102s104-46 104-102c2-38-20-72-52-90z m-300 346c0 126 112 250 250 250 138 0 250-124 250-250h-500z" horiz-adv-x="1000" />

<glyph glyph-name="pr_phone_icon_sign_prompt" unicode="&#xe815;" d="M500 850c-276 0-500-224-500-500s224-500 500-500 500 224 500 500-224 500-500 500z m58-764h-118v118h118v-118z m0 206h-118v322h118v-322z" horiz-adv-x="1000" />

<glyph glyph-name="pr_share_prompt_01" unicode="&#xe816;" d="M0-114v72h1000v-72h-1000z m0 500h1000v-72h-1000v72z m0 428h1000v-72h-1000v72z" horiz-adv-x="1000" />

<glyph glyph-name="pr_share_prompt_02" unicode="&#xe817;" d="M842-150h-684-58v58 600 58h58 172v-58h-172v-600h686v600h-172v58h172 56v-58-600-58h-58z m-314 902v-588h-58v588l-102-102-40 40 142 160 0 0h18l0 0 0 0h22l0 0 0 0h18l0 0 142-160-40-40-102 102z" horiz-adv-x="1000" />

<glyph glyph-name="pr_step_01" unicode="&#xe818;" d="M500-150c-276 0-500 224-500 500s224 500 500 500 500-224 500-500-224-500-500-500z m66 734h-78l-88-78v-86l88 76v-346h78v434z" horiz-adv-x="1000" />

<glyph glyph-name="pr_step_02" unicode="&#xe819;" d="M500-150c-276 0-500 224-500 500s224 500 500 500 500-224 500-500-224-500-500-500z m134 370h-170l122 140c18 20 30 36 36 50 6 14 10 30 10 48 0 38-12 68-38 92s-54 32-94 32c-38 0-70-12-96-34-26-22-38-54-38-92h80c0 20 6 34 16 42 10 8 24 12 38 12 16 0 30-4 40-14 10-10 14-22 14-38 0-16-8-34-22-52l-164-186v-70h268v70z" horiz-adv-x="1000" />

<glyph glyph-name="pr_step_03" unicode="&#xe81a;" d="M500-150c-276 0-500 224-500 500s224 500 500 500 500-224 500-500-224-500-500-500z m128 610c0 36-12 66-36 88-24 22-54 34-92 34-36 0-66-10-90-32-24-22-36-52-38-88h76c0 16 6 28 16 38 10 10 22 14 36 14 14 0 26-4 36-14 10-10 14-22 14-40 0-16-4-28-14-38-8-10-22-14-40-14h-12v-68h12c18 0 32-6 44-16 10-10 16-24 16-42 0-18-6-34-16-44-10-10-24-16-40-16-16 0-30 4-40 14-10 10-16 24-16 42h-76c0-42 14-74 40-94 26-20 58-32 94-32 38 0 70 10 96 32 26 22 38 54 38 94 0 46-18 78-54 96 30 16 46 46 46 86z" horiz-adv-x="1000" />

<glyph glyph-name="dc_icon_coupon" unicode="&#xe81b;" d="M1000 178v-114c0-62-52-114-114-114h-772c-62 0-114 52-114 114v572c0 62 52 114 114 114h772c62 0 114-52 114-114v-114c-94 0-172-78-172-172s78-172 172-172z m-628 286h-172c-18 0-28-12-28-28s12-28 28-28h172c18 0 28 12 28 28s-12 28-28 28z m56-172h-228c-18 0-28-12-28-28s12-28 28-28h228c18 0 28 12 28 28s-10 28-28 28z m258 286c0 18-12 28-28 28s-28-12-28-28v-58c0-18 12-28 28-28s28 12 28 28v58z m0-200c0 18-12 28-28 28s-28-12-28-28v-58c0-18 12-28 28-28s28 12 28 28v58z m0-200c0 18-12 28-28 28s-28-12-28-28v-58c0-18 12-28 28-28s28 12 28 28v58z" horiz-adv-x="1000" />

<glyph glyph-name="dc_icon_delete" unicode="&#xe81c;" d="M500 850c-276 0-500-224-500-500s224-500 500-500 500 224 500 500-224 500-500 500z m250-550h-500v100h500v-100z" horiz-adv-x="1000" />

<glyph glyph-name="dc_icon_move" unicode="&#xe81d;" d="M0 410h1600v-120h-1600v120z m0 440h1600v-120h-1600v120z m0-880h1600v-120h-1600v120z" horiz-adv-x="1600" />

<glyph glyph-name="dc_icon_project" unicode="&#xe81e;" d="M1000 577l-500 273-500-273 500-275 500 275z m-500-322l-337 185-163-89 500-275 500 275-163 89-337-185z m0-226l-337 185-163-89 500-275 500 275-163 89-337-185z" horiz-adv-x="1000" />

<glyph glyph-name="dc_icon_share" unicode="&#xe81f;" d="M1050 644l-155-592v707l100-20c42-11 67-54 55-95z m-287-794h-684c-44 0-79 35-79 79v842c0 44 35 79 79 79h684c44 0 79-35 79-79v-842c0-44-35-79-79-79z m-95 590l-173 116c-4 3-9 5-15 5-4 0-8-1-11-3-9-5-14-13-14-23v-40c-139-3-251-115-251-253 0-1 0-2 0-2 0-10 6-18 16-21 2 0 4-1 6-1 7 0 14 4 18 10 45 69 122 115 211 117v-40c0-9 5-18 14-22 3-2 7-3 12-3 5 0 10 2 14 5l173 118c6 4 10 11 10 18 0 8-4 14-10 19z" horiz-adv-x="1053" />

<glyph glyph-name="dc_pc_arrow_open_personal" unicode="&#xe820;" d="M756 326l-466-466c-12-12-34-12-46 0-12 12-12 34 0 46l444 444-444 444c-12 12-12 34 0 46s34 12 46 0l468-468c6-6 10-14 10-24-2-6-4-14-12-22z" horiz-adv-x="1000" />

<glyph glyph-name="dc_pc_email_selected" unicode="&#xe821;" d="M972 556l-542-544c-20-20-44-28-70-26-24 0-50 8-68 28l-264 264c-38 38-38 98 0 134s98 38 134 0l204-202 476 476c36 36 94 36 130 0 38-36 38-94 0-130z" horiz-adv-x="1000" />

<glyph glyph-name="dc_pc_icon_exit_logon" unicode="&#xe822;" d="M1000 344c0-14-6-26-16-38l-164-162c-22-22-60-22-82 0-22 22-22 60 0 82l68 68h-418c-30 0-56 24-56 56s24 56 56 56h418l-68 68c-22 22-22 60 0 82 22 22 60 22 82 0l164-164c12-12 16-26 16-40 0-2 0-4 0-8 0 2 0 2 0 0z m-444 394h-444v-778h444c30 0 56-24 56-56 0-30-24-56-56-56h-444c-10 0-46 0-56 0-32 2-56 26-56 58v888c0 32 24 56 56 56 10 0 44 0 56 0h444c30 0 56-24 56-56s-26-56-56-56z" horiz-adv-x="1000" />

<glyph glyph-name="dc_phone_arrow_open" unicode="&#xe823;" d="M768 394c0 0-2 2-2 2l-444 436c-24 24-64 24-90 0-24-24-24-64 0-88l400-394-400-394c-24-24-24-64 0-88s64-24 88 0l442 434c0 0 2 2 4 2 12 12 18 28 18 44 2 18-4 34-16 46z" horiz-adv-x="1000" />

<glyph glyph-name="dc_phone_arrow_return" unicode="&#xe824;" d="M768-44l-402 394 400 394c24 24 24 64 0 88s-64 24-88 0l-442-436c0 0-2-2-2-2-12-12-18-28-18-44 0-16 6-32 18-44 0 0 2-2 2-2l442-436c24-24 64-24 90 0 24 24 24 64 0 88z" horiz-adv-x="1000" />

<glyph glyph-name="dc_phone_icon_all_close" unicode="&#xe825;" d="M562 348l424 426c18 18 18 46 0 64-18 18-46 18-62 0l-424-426-424 426c-18 18-46 18-62 0-18-18-18-46 0-64l424-426-422-422c-18-18-18-46 0-64s46-18 62 0l422 424 422-422c18-18 46-18 62 0s18 46 0 64l-422 420z" horiz-adv-x="1000" />

<glyph glyph-name="dc_phone_icon_balance" unicode="&#xe826;" d="M738 102c-48 0-88 38-88 84v140c0 46 40 84 88 84h228c2 0 2 0 4 0v140c0 36-30 66-68 66h-834c-38 0-68-30-68-66v-588c0-36 30-66 68-66h834c38 0 68 30 68 66v140c-2 0-2 0-4 0h-228z m222 264h-232c-22 0-40-18-40-38v-142c0-22 18-38 40-38h232c22 0 40 18 40 38v142c0 20-18 38-40 38z m-164-156c-26 0-46 20-46 46 0 26 20 46 46 46s46-20 46-46c2-26-20-46-46-46z m-2 530c-16 48-64 74-110 58l-340-120h468l-18 62z" horiz-adv-x="1000" />

<glyph glyph-name="dc_phone_icon_customer_service" unicode="&#xe827;" d="M918 218c-7 0-15 0-23 0v350c0 69-53 124-119 124h-513v53c0 58 48 105 105 105h579c58 0 106-47 106-105v-684c0 0-95 157-135 157z m-76 316v-421c0-58-47-105-105-105 0 0-390 0-576 0-40 0-161-158-161-158v684c0 58 47 106 105 106h632c58 0 105-48 105-106z m-552-184c0 16-11 26-27 26h-52c-16 0-27-10-27-26v-53c0-15 11-26 27-26h52c16 0 27 11 27 26v53z m184 0c0 16-11 26-27 26h-52c-16 0-27-10-27-26v-53c0-15 11-26 27-26h52c16 0 27 11 27 26v53z m184 0c0 16-11 26-26 26h-53c-16 0-26-10-26-26v-53c0-15 10-26 26-26h53c15 0 26 11 26 26v53z" horiz-adv-x="1053" />

<glyph glyph-name="dc_phone_icon_email_delete" unicode="&#xe828;" d="M782 710h-94v22c0 58-44 118-96 118h-184c-52 0-94-60-94-118v-22h-94c-62 0-110-44-110-114v-32h786v32c-4 68-52 114-114 114z m-148 0h-268v22c0 26 18 46 42 46h184c22 0 42-20 42-46 0 0 0-22 0-22z m-456-802c0-32 26-58 60-58h524c32 0 60 26 60 58v584h-644v-584z m430 442h72v-356h-72v356z m-144 0h72v-356h-72v356z m-142 0h72v-356h-72v356z" horiz-adv-x="1000" />

<glyph glyph-name="dc_phone_icon_email_down" unicode="&#xe829;" d="M974 616c-34 34-90 34-124 0l-350-352-352 352c-34 34-88 34-122 0s-34-90 0-124l410-408c18-18 42-26 66-26 24-2 48 8 66 26l410 408c30 34 30 90-4 124z" horiz-adv-x="1000" />

<glyph glyph-name="dc_phone_icon_email_up" unicode="&#xe82a;" d="M974 84c-34-34-90-34-124 0l-350 352-352-352c-34-34-88-34-122 0-34 34-34 90 0 124l410 408c18 18 42 26 66 26 24 2 48-8 66-26l410-408c30-34 30-90-4-124z" horiz-adv-x="1000" />

<glyph glyph-name="dc_phone_icon_enclosure" unicode="&#xe82b;" d="M1000 618c0 30-30 54-66 54h-384c-10 0-18 2-26 8l-86 62c-16 12-38 18-60 18h-158-54-100c-36 0-66-24-66-54v-158h1000l0 70z m-1000-624c0-30 30-54 66-54h868c36 0 66 24 66 54v72 104l0 316h-1000v-492z m576 370h272v-60h-272c0 0 0 60 0 60z m0-150h272v-60h-272c0-2 0 60 0 60z" horiz-adv-x="1000" />

<glyph glyph-name="dc_phone_icon_feedback" unicode="&#xe82c;" d="M964 562l-446-420c-10-8-24-8-34 0l-448 420c-14 14-36 4-36-14 0 0 0 0 0 0v-554c0-46 38-82 86-82h830c48 0 86 36 86 82v554c0 0 0 0 0 0-2 18-24 28-38 14z m-478-362c8-8 22-8 30 0l416 394c14 12 4 34-14 34 0 0 0 0 0 0h-26v124c0 20-16 36-36 36h-710c-20 0-36-16-36-36v-124h-26c0 0 0 0 0 0-18 0-28-22-14-34l416-394z m-114 494h258c16 0 28-14 28-32 0-18-12-32-28-32h-258c-16 0-28 14-28 32s12 32 28 32z m-64-124h384c14 0 26-14 26-32 0-18-12-32-26-32h-384c-14 0-26 14-26 32 0 16 12 32 26 32z" horiz-adv-x="1000" />

<glyph glyph-name="dc_phone_icon_home" unicode="&#xe82d;" d="M958 428l-428 410c-16 16-42 16-60 0l-428-410c-16-16-18-42 0-60 16-16 44-16 60 0l6 6v-424c0-56 46-100 102-100h580c56 0 102 46 102 100v424l6-6c8-8 18-12 30-12 12 0 22 4 30 12 16 18 16 44 0 60z m-340-578h-236v236c0 32 26 58 58 58h118c32 0 58-26 58-58v-236z" horiz-adv-x="1000" />
</font>
</defs>
</svg>
